(Breaks, Electro, Freestyle) Flying Steps (8 releases) - 1998-2005, FLAC (tracks+.cue), lossless

Страницы:  1
Ответить
Автор
Сообщение

Аndy

Moderator

Стаж: 11 лет 1 месяц

Сообщений: 47038

Аndy · 26-Дек-09 09:38 (9 лет 7 месяцев назад, ред. 16-Ноя-15 21:24)

Flying Steps


Жанр: Breaks, Electro, Freestyle
Год выпуска диска: 1998-2005
Аудио кодек: FLAC
Тип рипа: tracks+.cue
Битрейт аудио: lossless
Продолжительность: 04:14:03
Наличие сканов: разумеется - да
Источники: компилы - с what.cd, синглы - рипы с собственных сд
Albums & Compilations
2001 - B-Town [DST 70900X-2]

Продолжительность: 01:07:42
01. Flying Steps - Breakin' It Down (Radio Version) [03:46]
02. Flying Steps - We Gonna Rock It (Drop-Out Short Cut) [03:58]
03. Flying Steps - B-Unitor I (DJ Mesia Remix) [04:09]
04. Flying Steps - In Da Arena (Video Show Cut) [03:23]
05. Flying Steps - King Of Rock (Zip Mix) [04:06]
06. Flying Steps - We Are Electric (Radio Mix) [03:34]
07. Flying Steps - B-Unitor II (DJ Mesia Mix) [03:15]
08. Flying Steps - Body Rockin (Crashi Cut) [04:02]
09. Flying Steps - The Wizard (Jetset Remix) [05:01]
10. Flying Steps - Electrik (Sonixtended) [03:44]
11. Flying Steps - Kings Of 808 (Drop-Out Short Cut) [05:19]
12. Flying Steps - B-Town Power (Bassheadz Edit) [03:26]
13. Flying Steps - We Are Robotic (Radio Mix) [03:42]
14. Flying Steps - Too Hot (Beatmix) [03:09]
15. Flying Steps - In Da Arena (Bassheadz Remix) [04:46]
16. Flying Steps - We Gonna Rock It (Jetset Remix) [04:21]
17. Flying Steps - We Are Electric (Bassheadz Remix) [04:08]
log and sheet
Log
Exact Audio Copy V1.0 beta 3 from 29. August 2011
EAC extraction logfile from 2. March 2015, 15:38
Flying Steps / B-Town
Used drive : ATAPI iHBS312 2 Adapter: 2 ID: 0
Read mode : Secure
Utilize accurate stream : Yes
Defeat audio cache : Yes
Make use of C2 pointers : No
Read offset correction : 6
Overread into Lead-In and Lead-Out : No
Fill up missing offset samples with silence : Yes
Delete leading and trailing silent blocks : No
Null samples used in CRC calculations : Yes
Used interface : Native Win32 interface for Win NT & 2000
Gap handling : Appended to previous track
Used output format : User Defined Encoder
Selected bitrate : 768 kBit/s
Quality : High
Add ID3 tag : No
Command line compressor : C:\Program Files (x86)\Exact Audio Copy\FLAC\FLAC.EXE
Additional command line options : -8 -V -T "ARTIST=%artist%" -T "TITLE=%title%" -T "ALBUM=%albumtitle%" -T "DATE=%year%" -T "TRACKNUMBER=%tracknr%" -T "GENRE=%genre%" -T "PERFORMER=%albuminterpret%" -T "COMPOSER=%composer%" %haslyrics%--tag-from-file=LYRICS="%lyricsfile%"%haslyrics% -T "ALBUMARTIST=%albumartist%" -T "DISCNUMBER=%cdnumber%" -T "TOTALDISCS=%totalcds%" -T "TOTALTRACKS=%numtracks%" -T "COMMENT=%comment%" %source% -o %dest%
TOC of the extracted CD
Track | Start | Length | Start sector | End sector
---------------------------------------------------------
1 | 0:00.00 | 3:45.16 | 0 | 16890
2 | 3:45.16 | 3:57.08 | 16891 | 34673
3 | 7:42.24 | 4:08.46 | 34674 | 53319
4 | 11:50.70 | 3:22.09 | 53320 | 68478
5 | 15:13.04 | 4:05.62 | 68479 | 86915
6 | 19:18.66 | 3:33.31 | 86916 | 102921
7 | 22:52.22 | 3:14.50 | 102922 | 117521
8 | 26:06.72 | 4:02.00 | 117522 | 135671
9 | 30:08.72 | 5:00.18 | 135672 | 158189
10 | 35:09.15 | 3:43.72 | 158190 | 174986
11 | 38:53.12 | 5:18.48 | 174987 | 198884
12 | 44:11.60 | 3:25.65 | 198885 | 214324
13 | 47:37.50 | 3:41.72 | 214325 | 230971
14 | 51:19.47 | 3:08.39 | 230972 | 245110
15 | 54:28.11 | 4:45.70 | 245111 | 266555
16 | 59:14.06 | 4:20.24 | 266556 | 286079
17 | 63:34.30 | 4:07.19 | 286080 | 304623
18 | 70:13.49 | 1:51.32 | 316024 | 324380
Track 1
Filename C:\Music\Flying Steps 2001 B-Town\01 Breakin' It Down (Radio Version).wav
Pre-gap length 0:00:02.00
Peak level 99.3 %
Extraction speed 2.1 X
Track quality 100.0 %
Test CRC 14BB53BB
Copy CRC 14BB53BB
Track not present in AccurateRip database
Copy OK
Track 2
Filename C:\Music\Flying Steps 2001 B-Town\02 We Gonna Rock It (Drop-Out Short Cut).wav
Pre-gap length 0:00:01.74
Peak level 99.4 %
Extraction speed 2.3 X
Track quality 100.0 %
Test CRC D902C412
Copy CRC D902C412
Track not present in AccurateRip database
Copy OK
Track 3
Filename C:\Music\Flying Steps 2001 B-Town\03 B-Unitor I (DJ Mesia Remix).wav
Pre-gap length 0:00:01.74
Peak level 96.6 %
Extraction speed 2.5 X
Track quality 100.0 %
Test CRC B21671C1
Copy CRC B21671C1
Track not present in AccurateRip database
Copy OK
Track 4
Filename C:\Music\Flying Steps 2001 B-Town\04 In Da Arena (Video Show Cut).wav
Pre-gap length 0:00:01.74
Peak level 99.4 %
Extraction speed 2.6 X
Track quality 100.0 %
Test CRC 15E4F4E4
Copy CRC 15E4F4E4
Track not present in AccurateRip database
Copy OK
Track 5
Filename C:\Music\Flying Steps 2001 B-Town\05 King Of Rock (Zip Mix).wav
Pre-gap length 0:00:01.74
Peak level 100.0 %
Extraction speed 2.8 X
Track quality 100.0 %
Test CRC 93B58AA5
Copy CRC 93B58AA5
Track not present in AccurateRip database
Copy OK
Track 6
Filename C:\Music\Flying Steps 2001 B-Town\06 We Are Electric (Radio Mix).wav
Pre-gap length 0:00:01.74
Peak level 98.1 %
Extraction speed 2.9 X
Track quality 100.0 %
Test CRC 93A0C3BA
Copy CRC 93A0C3BA
Track not present in AccurateRip database
Copy OK
Track 7
Filename C:\Music\Flying Steps 2001 B-Town\07 B-Unitor II (DJ Mesia Mix).wav
Pre-gap length 0:00:01.74
Peak level 96.6 %
Extraction speed 3.0 X
Track quality 100.0 %
Test CRC B5331CAA
Copy CRC B5331CAA
Track not present in AccurateRip database
Copy OK
Track 8
Filename C:\Music\Flying Steps 2001 B-Town\08 Body Rockin (Crashi Cut).wav
Pre-gap length 0:00:01.74
Peak level 96.3 %
Extraction speed 2.4 X
Track quality 99.9 %
Test CRC 16ECD17C
Copy CRC 16ECD17C
Track not present in AccurateRip database
Copy OK
Track 9
Filename C:\Music\Flying Steps 2001 B-Town\09 The Wizard (Jetset Remix).wav
Pre-gap length 0:00:01.74
Peak level 100.0 %
Extraction speed 3.5 X
Track quality 100.0 %
Test CRC 0FC1C507
Copy CRC 0FC1C507
Track not present in AccurateRip database
Copy OK
Track 10
Filename C:\Music\Flying Steps 2001 B-Town\10 Electrik (Sonixtended).wav
Pre-gap length 0:00:01.74
Peak level 98.1 %
Extraction speed 3.5 X
Track quality 100.0 %
Test CRC 501EEBAC
Copy CRC 501EEBAC
Track not present in AccurateRip database
Copy OK
Track 11
Filename C:\Music\Flying Steps 2001 B-Town\11 Kings Of 808 (Drop-Out Short Cut).wav
Pre-gap length 0:00:01.74
Peak level 100.0 %
Extraction speed 3.8 X
Track quality 100.0 %
Test CRC 267240B8
Copy CRC 267240B8
Track not present in AccurateRip database
Copy OK
Track 12
Filename C:\Music\Flying Steps 2001 B-Town\12 B-Town Power (Bassheadz Edit).wav
Pre-gap length 0:00:01.74
Peak level 100.0 %
Extraction speed 3.7 X
Track quality 100.0 %
Test CRC AA8E044D
Copy CRC AA8E044D
Track not present in AccurateRip database
Copy OK
Track 13
Filename C:\Music\Flying Steps 2001 B-Town\13 We Are Robotic (Radio Mix).wav
Pre-gap length 0:00:01.74
Peak level 100.0 %
Extraction speed 3.9 X
Track quality 100.0 %
Test CRC B19C1F23
Copy CRC B19C1F23
Track not present in AccurateRip database
Copy OK
Track 14
Filename C:\Music\Flying Steps 2001 B-Town\14 Too Hot (Beatmix).wav
Pre-gap length 0:00:01.74
Peak level 100.0 %
Extraction speed 3.8 X
Track quality 100.0 %
Test CRC E2127AE5
Copy CRC E2127AE5
Track not present in AccurateRip database
Copy OK
Track 15
Filename C:\Music\Flying Steps 2001 B-Town\15 In Da Arena (Bassheadz Remix).wav
Pre-gap length 0:00:01.74
Peak level 98.4 %
Extraction speed 4.2 X
Track quality 100.0 %
Test CRC DFB25D7F
Copy CRC DFB25D7F
Track not present in AccurateRip database
Copy OK
Track 16
Filename C:\Music\Flying Steps 2001 B-Town\16 We Gonna Rock It (Jetset Remix).wav
Pre-gap length 0:00:01.74
Peak level 99.4 %
Extraction speed 4.3 X
Track quality 100.0 %
Test CRC AEA0FDA6
Copy CRC AEA0FDA6
Track not present in AccurateRip database
Copy OK
Track 17
Filename C:\Music\Flying Steps 2001 B-Town\17 We Are Electric (Bassheadz Remix).wav
Pre-gap length 0:00:01.74
Peak level 98.1 %
Extraction speed 4.3 X
Track quality 100.0 %
Test CRC 3B04EAD5
Copy CRC 3B04EAD5
Track not present in AccurateRip database
Copy OK
None of the tracks are present in the AccurateRip database
No errors occurred
End of status report
---- CUETools DB Plugin V2.1.3
[CTDB TOCID: 5iOEZlk_QUqJVOHd_kEpskJII20-] disk not present in database, Submit result: 5iOEZlk_QUqJVOHd_kEpskJII20- has been uploaded
==== Log checksum 0D2F26046423653B46877335D22EF378B3C6EBEBC3DEE48934FBC455D4FA9D37 ====
CUE
REM GENRE Freestyle
REM DATE 2001
REM DISCID EC10E512
REM COMMENT "ExactAudioCopy v1.0b3"
PERFORMER "Flying Steps"
TITLE "B-Town"
FILE "01 Breakin' It Down (Radio Version).wav" WAVE
TRACK 01 AUDIO
TITLE "Breakin' It Down (Radio Version)"
PERFORMER "Flying Steps"
INDEX 01 00:00:00
TRACK 02 AUDIO
TITLE "We Gonna Rock It (Drop-Out Short Cut)"
PERFORMER "Flying Steps"
INDEX 00 03:43:17
FILE "02 We Gonna Rock It (Drop-Out Short Cut).wav" WAVE
INDEX 01 00:00:00
TRACK 03 AUDIO
TITLE "B-Unitor I (DJ Mesia Remix)"
PERFORMER "Flying Steps"
INDEX 00 03:55:09
FILE "03 B-Unitor I (DJ Mesia Remix).wav" WAVE
INDEX 01 00:00:00
TRACK 04 AUDIO
TITLE "In Da Arena (Video Show Cut)"
PERFORMER "Flying Steps"
INDEX 00 04:06:47
FILE "04 In Da Arena (Video Show Cut).wav" WAVE
INDEX 01 00:00:00
TRACK 05 AUDIO
TITLE "King Of Rock (Zip Mix)"
PERFORMER "Flying Steps"
INDEX 00 03:20:10
FILE "05 King Of Rock (Zip Mix).wav" WAVE
INDEX 01 00:00:00
TRACK 06 AUDIO
TITLE "We Are Electric (Radio Mix)"
PERFORMER "Flying Steps"
INDEX 00 04:03:63
FILE "06 We Are Electric (Radio Mix).wav" WAVE
INDEX 01 00:00:00
TRACK 07 AUDIO
TITLE "B-Unitor II (DJ Mesia Mix)"
PERFORMER "Flying Steps"
INDEX 00 03:31:32
FILE "07 B-Unitor II (DJ Mesia Mix).wav" WAVE
INDEX 01 00:00:00
TRACK 08 AUDIO
TITLE "Body Rockin (Crashi Cut)"
PERFORMER "Flying Steps"
INDEX 00 03:12:51
FILE "08 Body Rockin (Crashi Cut).wav" WAVE
INDEX 01 00:00:00
TRACK 09 AUDIO
TITLE "The Wizard (Jetset Remix)"
PERFORMER "Flying Steps"
INDEX 00 04:00:01
FILE "09 The Wizard (Jetset Remix).wav" WAVE
INDEX 01 00:00:00
TRACK 10 AUDIO
TITLE "Electrik (Sonixtended)"
PERFORMER "Flying Steps"
INDEX 00 04:58:19
FILE "10 Electrik (Sonixtended).wav" WAVE
INDEX 01 00:00:00
TRACK 11 AUDIO
TITLE "Kings Of 808 (Drop-Out Short Cut)"
PERFORMER "Flying Steps"
INDEX 00 03:41:73
FILE "11 Kings Of 808 (Drop-Out Short Cut).wav" WAVE
INDEX 01 00:00:00
TRACK 12 AUDIO
TITLE "B-Town Power (Bassheadz Edit)"
PERFORMER "Flying Steps"
INDEX 00 05:16:49
FILE "12 B-Town Power (Bassheadz Edit).wav" WAVE
INDEX 01 00:00:00
TRACK 13 AUDIO
TITLE "We Are Robotic (Radio Mix)"
PERFORMER "Flying Steps"
INDEX 00 03:23:66
FILE "13 We Are Robotic (Radio Mix).wav" WAVE
INDEX 01 00:00:00
TRACK 14 AUDIO
TITLE "Too Hot (Beatmix)"
PERFORMER "Flying Steps"
INDEX 00 03:39:73
FILE "14 Too Hot (Beatmix).wav" WAVE
INDEX 01 00:00:00
TRACK 15 AUDIO
TITLE "In Da Arena (Bassheadz Remix)"
PERFORMER "Flying Steps"
INDEX 00 03:06:40
FILE "15 In Da Arena (Bassheadz Remix).wav" WAVE
INDEX 01 00:00:00
TRACK 16 AUDIO
TITLE "We Gonna Rock It (Jetset Remix)"
PERFORMER "Flying Steps"
INDEX 00 04:43:71
FILE "16 We Gonna Rock It (Jetset Remix).wav" WAVE
INDEX 01 00:00:00
TRACK 17 AUDIO
TITLE "We Are Electric (Bassheadz Remix)"
PERFORMER "Flying Steps"
INDEX 00 04:18:25
FILE "17 We Are Electric (Bassheadz Remix).wav" WAVE
INDEX 01 00:00:00
2005 - Breakdance Battle [DST 75087-2]

Продолжительность: 54:08
01. Flying Steps - Breakin It Down (Extended Mix) [04:56]
02. Flying Steps - We Gonna Rock It (2001 Remix) [03:21]
03. Flying Steps - Super Sonic (Bonus Track) [03:48]
04. Flying Steps - In Da Arena (Video Show Cut) [03:22]
05. Flying Steps - King Of Rock (Zip Mix) [04:05]
06. Flying Steps - We Are Electric (Radio Mix) [03:30]
07. Flying Steps - B-Unitor II (DJ Mesia Mix) [03:13]
08. Flying Steps - Body Rockin (Crashi Cut) [03:56]
09. Flying Steps - Electric (Sonixtended) [03:45]
10. Flying Steps - B-Town Power (Bassheadz Edit) [03:27]
11. Flying Steps - We Are Robotic (Radio Mix) [03:41]
12. Flying Steps - In Da Arena (Bassheadz Remix) [04:46]
13. Flying Steps - We Gonna Rock It (Jetset Remix) [04:20]
14. Flying Steps - We Are Electric (Bassheadz Remix) [04:04]
log and sheet
Log
Exact Audio Copy V1.0 beta 3 from 29. August 2011
EAC extraction logfile from 25. November 2012, 16:23
Flying Steps / Breakdance Battle
Used drive : HL-DT-STDVDRAM GSA-4167B Adapter: 0 ID: 1
Read mode : Secure
Utilize accurate stream : Yes
Defeat audio cache : Yes
Make use of C2 pointers : No
Read offset correction : 667
Overread into Lead-In and Lead-Out : No
Fill up missing offset samples with silence : Yes
Delete leading and trailing silent blocks : No
Null samples used in CRC calculations : Yes
Used interface : Native Win32 interface for Win NT & 2000
Gap handling : Appended to previous track
Used output format : User Defined Encoder
Selected bitrate : 1024 kBit/s
Quality : High
Add ID3 tag : No
Command line compressor : C:\Program Files (x86)\Exact Audio Copy\flac.exe
Additional command line options : -T "artist=%artist%" -T "title=%title%" -T "album=%albumtitle%" -T "date=%year%" -T "tracknumber=%tracknr%" -T "genre=%genre%" -5 %source%
TOC of the extracted CD
Track | Start | Length | Start sector | End sector
---------------------------------------------------------
1 | 0:00.00 | 4:55.62 | 0 | 22186
2 | 4:55.62 | 3:20.70 | 22187 | 37256
3 | 8:16.57 | 3:47.28 | 37257 | 54309
4 | 12:04.10 | 3:21.43 | 54310 | 69427
5 | 15:25.53 | 4:04.16 | 69428 | 87743
6 | 19:29.69 | 3:29.43 | 87744 | 103461
7 | 22:59.37 | 3:12.44 | 103462 | 117905
8 | 26:12.06 | 3:55.57 | 117906 | 135587
9 | 30:07.63 | 3:44.21 | 135588 | 152408
10 | 33:52.09 | 3:26.10 | 152409 | 167868
11 | 37:18.19 | 3:40.56 | 167869 | 184424
12 | 40:59.00 | 4:45.41 | 184425 | 205840
13 | 45:44.41 | 4:19.23 | 205841 | 225288
14 | 50:03.64 | 4:03.23 | 225289 | 243536
15 | 56:39.12 | 16:12.10 | 254937 | 327846
Track 1
Filename C:\Music\What.CD\WHAT.CD Upload\[DST 75087-2] Flying Steps ‎– Breakdance Battle (2005) [flac]\01 Flying Steps - Breakin It Down (Extended Mix).wav
Pre-gap length 0:00:02.00
Peak level 98.9 %
Extraction speed 2.6 X
Track quality 99.9 %
Test CRC FB4E30F6
Copy CRC FB4E30F6
Track not present in AccurateRip database
Copy OK
Track 2
Filename C:\Music\What.CD\WHAT.CD Upload\[DST 75087-2] Flying Steps ‎– Breakdance Battle (2005) [flac]\02 Flying Steps - We Gonna Rock It (2001 Remix).wav
Peak level 93.9 %
Extraction speed 3.0 X
Track quality 100.0 %
Test CRC 799174FC
Copy CRC 799174FC
Track not present in AccurateRip database
Copy OK
Track 3
Filename C:\Music\What.CD\WHAT.CD Upload\[DST 75087-2] Flying Steps ‎– Breakdance Battle (2005) [flac]\03 Flying Steps - Super Sonic (Bonus Track).wav
Peak level 98.8 %
Extraction speed 2.9 X
Track quality 99.9 %
Test CRC E004F372
Copy CRC E004F372
Track not present in AccurateRip database
Copy OK
Track 4
Filename C:\Music\What.CD\WHAT.CD Upload\[DST 75087-2] Flying Steps ‎– Breakdance Battle (2005) [flac]\04 Flying Steps - In Da Arena (Video Show Cut).wav
Peak level 98.9 %
Extraction speed 3.5 X
Track quality 100.0 %
Test CRC 059AC837
Copy CRC 059AC837
Track not present in AccurateRip database
Copy OK
Track 5
Filename C:\Music\What.CD\WHAT.CD Upload\[DST 75087-2] Flying Steps ‎– Breakdance Battle (2005) [flac]\05 Flying Steps - King Of Rock (Zip Mix).wav
Peak level 98.8 %
Extraction speed 3.7 X
Track quality 100.0 %
Test CRC 9AFEE303
Copy CRC 9AFEE303
Track not present in AccurateRip database
Copy OK
Track 6
Filename C:\Music\What.CD\WHAT.CD Upload\[DST 75087-2] Flying Steps ‎– Breakdance Battle (2005) [flac]\06 Flying Steps - We Are Electric (Radio Mix).wav
Peak level 98.9 %
Extraction speed 3.9 X
Track quality 100.0 %
Test CRC 86636A81
Copy CRC 86636A81
Track not present in AccurateRip database
Copy OK
Track 7
Filename C:\Music\What.CD\WHAT.CD Upload\[DST 75087-2] Flying Steps ‎– Breakdance Battle (2005) [flac]\07 Flying Steps - B-Unitor II (DJ Mesia Mix).wav
Peak level 98.8 %
Extraction speed 4.1 X
Track quality 100.0 %
Test CRC A2C2A182
Copy CRC A2C2A182
Track not present in AccurateRip database
Copy OK
Track 8
Filename C:\Music\What.CD\WHAT.CD Upload\[DST 75087-2] Flying Steps ‎– Breakdance Battle (2005) [flac]\08 Flying Steps - Body Rockin (Crashi Cut).wav
Peak level 98.8 %
Extraction speed 4.3 X
Track quality 100.0 %
Test CRC 27C14535
Copy CRC 27C14535
Track not present in AccurateRip database
Copy OK
Track 9
Filename C:\Music\What.CD\WHAT.CD Upload\[DST 75087-2] Flying Steps ‎– Breakdance Battle (2005) [flac]\09 Flying Steps - Electric (Sonixtended).wav
Peak level 98.9 %
Extraction speed 4.4 X
Track quality 100.0 %
Test CRC 7E58592B
Copy CRC 7E58592B
Track not present in AccurateRip database
Copy OK
Track 10
Filename C:\Music\What.CD\WHAT.CD Upload\[DST 75087-2] Flying Steps ‎– Breakdance Battle (2005) [flac]\10 Flying Steps - B-Town Power (Bassheadz Edit).wav
Peak level 98.8 %
Extraction speed 4.5 X
Track quality 100.0 %
Test CRC 9B8CC764
Copy CRC 9B8CC764
Track not present in AccurateRip database
Copy OK
Track 11
Filename C:\Music\What.CD\WHAT.CD Upload\[DST 75087-2] Flying Steps ‎– Breakdance Battle (2005) [flac]\11 Flying Steps - We Are Robotic (Radio Mix).wav
Peak level 98.9 %
Extraction speed 4.1 X
Track quality 99.9 %
Test CRC 8B5FC490
Copy CRC 8B5FC490
Track not present in AccurateRip database
Copy OK
Track 12
Filename C:\Music\What.CD\WHAT.CD Upload\[DST 75087-2] Flying Steps ‎– Breakdance Battle (2005) [flac]\12 Flying Steps - In Da Arena (Bassheadz Remix).wav
Peak level 98.9 %
Extraction speed 5.2 X
Track quality 100.0 %
Test CRC BC37A58F
Copy CRC BC37A58F
Track not present in AccurateRip database
Copy OK
Track 13
Filename C:\Music\What.CD\WHAT.CD Upload\[DST 75087-2] Flying Steps ‎– Breakdance Battle (2005) [flac]\13 Flying Steps - We Gonna Rock It (Jetset Remix).wav
Peak level 98.9 %
Extraction speed 4.6 X
Track quality 99.9 %
Test CRC A0765B41
Copy CRC A0765B41
Track not present in AccurateRip database
Copy OK
Track 14
Filename C:\Music\What.CD\WHAT.CD Upload\[DST 75087-2] Flying Steps ‎– Breakdance Battle (2005) [flac]\14 Flying Steps - We Are Electric (Bassheadz Remix).wav
Peak level 98.9 %
Extraction speed 5.3 X
Track quality 100.0 %
Test CRC BFF606BF
Copy CRC BFF606BF
Track not present in AccurateRip database
Copy OK
None of the tracks are present in the AccurateRip database
No errors occurred
End of status report
==== Log checksum 5B5D9393F0924813EBE34CB482286A42F0B65724370C50543F175602E58CA051 ====
CUE
REM GENRE "Breaks, Electro, Hip Hop"
REM DATE 2005
REM DISCID C511130F
REM COMMENT "ExactAudioCopy v1.0b3"
PERFORMER "Flying Steps"
TITLE "Breakdance Battle"
FILE "01 Flying Steps - Breakin It Down (Extended Mix).wav" WAVE
TRACK 01 AUDIO
TITLE "Breakin It Down (Extended Mix)"
PERFORMER "Flying Steps"
INDEX 01 00:00:00
FILE "02 Flying Steps - We Gonna Rock It (2001 Remix).wav" WAVE
TRACK 02 AUDIO
TITLE "We Gonna Rock It (2001 Remix)"
PERFORMER "Flying Steps"
INDEX 01 00:00:00
FILE "03 Flying Steps - Super Sonic (Bonus Track).wav" WAVE
TRACK 03 AUDIO
TITLE "Super Sonic (Bonus Track)"
PERFORMER "Flying Steps"
INDEX 01 00:00:00
FILE "04 Flying Steps - In Da Arena (Video Show Cut).wav" WAVE
TRACK 04 AUDIO
TITLE "In Da Arena (Video Show Cut)"
PERFORMER "Flying Steps"
INDEX 01 00:00:00
FILE "05 Flying Steps - King Of Rock (Zip Mix).wav" WAVE
TRACK 05 AUDIO
TITLE "King Of Rock (Zip Mix)"
PERFORMER "Flying Steps"
INDEX 01 00:00:00
FILE "06 Flying Steps - We Are Electric (Radio Mix).wav" WAVE
TRACK 06 AUDIO
TITLE "We Are Electric (Radio Mix)"
PERFORMER "Flying Steps"
INDEX 01 00:00:00
FILE "07 Flying Steps - B-Unitor II (DJ Mesia Mix).wav" WAVE
TRACK 07 AUDIO
TITLE "B-Unitor II (DJ Mesia Mix)"
PERFORMER "Flying Steps"
INDEX 01 00:00:00
FILE "08 Flying Steps - Body Rockin (Crashi Cut).wav" WAVE
TRACK 08 AUDIO
TITLE "Body Rockin (Crashi Cut)"
PERFORMER "Flying Steps"
INDEX 01 00:00:00
FILE "09 Flying Steps - Electric (Sonixtended).wav" WAVE
TRACK 09 AUDIO
TITLE "Electric (Sonixtended)"
PERFORMER "Flying Steps"
INDEX 01 00:00:00
FILE "10 Flying Steps - B-Town Power (Bassheadz Edit).wav" WAVE
TRACK 10 AUDIO
TITLE "B-Town Power (Bassheadz Edit)"
PERFORMER "Flying Steps"
INDEX 01 00:00:00
FILE "11 Flying Steps - We Are Robotic (Radio Mix).wav" WAVE
TRACK 11 AUDIO
TITLE "We Are Robotic (Radio Mix)"
PERFORMER "Flying Steps"
INDEX 01 00:00:00
FILE "12 Flying Steps - In Da Arena (Bassheadz Remix).wav" WAVE
TRACK 12 AUDIO
TITLE "In Da Arena (Bassheadz Remix)"
PERFORMER "Flying Steps"
INDEX 01 00:00:00
FILE "13 Flying Steps - We Gonna Rock It (Jetset Remix).wav" WAVE
TRACK 13 AUDIO
TITLE "We Gonna Rock It (Jetset Remix)"
PERFORMER "Flying Steps"
INDEX 01 00:00:00
FILE "14 Flying Steps - We Are Electric (Bassheadz Remix).wav" WAVE
TRACK 14 AUDIO
TITLE "We Are Electric (Bassheadz Remix)"
PERFORMER "Flying Steps"
INDEX 01 00:00:00
INDEX 01 00:00:00
Singles
1998 - Music Instructor feat. Flying Steps - Super Sonic [3984-22619-2]

Продолжительность: 24:48
01. Music Instructor feat. Flying Steps - Super Sonic (single edit) [03:49]
02. Music Instructor feat. Flying Steps - Super Sonic (extended version) [05:32]
03. Music Instructor feat. Flying Steps - Super Sonic (Jam Tronic mix) [05:39]
04. Music Instructor feat. Flying Steps - Super Sonic (Brainbug remix) [05:59]
05. Music Instructor feat. Flying Steps - Super Sonic (Dee Jay Sören Electro mix) [03:51]
log and sheet
Log
Exact Audio Copy V1.1 from 23. June 2015
EAC extraction logfile from 16. November 2015, 20:28
Music Instructor feat. Flying Steps / Super Sonic
Used drive : ASUS SDRW-08D2S-U Adapter: 1 ID: 0
Read mode : Secure
Utilize accurate stream : Yes
Defeat audio cache : Yes
Make use of C2 pointers : No
Read offset correction : 6
Overread into Lead-In and Lead-Out : No
Fill up missing offset samples with silence : Yes
Delete leading and trailing silent blocks : No
Null samples used in CRC calculations : Yes
Used interface : Native Win32 interface for Win NT & 2000
Gap handling : Appended to previous track
Used output format : User Defined Encoder
Selected bitrate : 32 kBit/s
Quality : High
Add ID3 tag : No
Command line compressor : C:\Exact Audio Copy [installed]\Flac\flac.exe
Additional command line options : -8 -V -T "ARTIST=%artist%" -T "TITLE=%title%" -T "ALBUM=%albumtitle%" -T "DATE=%year%" -T "TRACKNUMBER=%tracknr%" -T "GENRE=%genre%" -T "COMMENT=ripped by Andy aka yetiisyou" %source%
TOC of the extracted CD
Track | Start | Length | Start sector | End sector
---------------------------------------------------------
1 | 0:00.00 | 3:48.65 | 0 | 17164
2 | 3:48.65 | 5:31.52 | 17165 | 42041
3 | 9:20.42 | 5:38.30 | 42042 | 67421
4 | 14:58.72 | 5:58.45 | 67422 | 94316
5 | 20:57.42 | 3:50.05 | 94317 | 111571
Track 1
Filename E:\!Ripped by Andy aka yetiisyou\Music Instructor feat. Flying Steps - Super Sonic [3984-22619-2] [1998]\01. Super Sonic (single edit).wav
Pre-gap length 0:00:02.00
Peak level 100.0 %
Extraction speed 2.6 X
Track quality 100.0 %
Test CRC 32B17A95
Copy CRC 32B17A95
Accurately ripped (confidence 38) [6F7675B8] (AR v2)
Copy OK
Track 2
Filename E:\!Ripped by Andy aka yetiisyou\Music Instructor feat. Flying Steps - Super Sonic [3984-22619-2] [1998]\02. Super Sonic (extended version).wav
Pre-gap length 0:00:01.48
Peak level 100.0 %
Extraction speed 2.8 X
Track quality 99.9 %
Test CRC DBC6478A
Copy CRC DBC6478A
Accurately ripped (confidence 39) [308A9431] (AR v2)
Copy OK
Track 3
Filename E:\!Ripped by Andy aka yetiisyou\Music Instructor feat. Flying Steps - Super Sonic [3984-22619-2] [1998]\03. Super Sonic (Jam Tronic mix).wav
Pre-gap length 0:00:01.47
Peak level 100.0 %
Extraction speed 3.5 X
Track quality 100.0 %
Test CRC E1D5A77E
Copy CRC E1D5A77E
Accurately ripped (confidence 38) [EFF52444] (AR v2)
Copy OK
Track 4
Filename E:\!Ripped by Andy aka yetiisyou\Music Instructor feat. Flying Steps - Super Sonic [3984-22619-2] [1998]\04. Super Sonic (Brainbug remix).wav
Pre-gap length 0:00:01.47
Peak level 100.0 %
Extraction speed 3.9 X
Track quality 100.0 %
Test CRC AB64EBEF
Copy CRC AB64EBEF
Accurately ripped (confidence 37) [97F20B11] (AR v2)
Copy OK
Track 5
Filename E:\!Ripped by Andy aka yetiisyou\Music Instructor feat. Flying Steps - Super Sonic [3984-22619-2] [1998]\05. Super Sonic (Dee Jay Sören Electro mix).wav
Pre-gap length 0:00:01.47
Peak level 99.8 %
Extraction speed 3.4 X
Track quality 99.9 %
Test CRC 0BFD8070
Copy CRC 0BFD8070
Accurately ripped (confidence 37) [794F9A6F] (AR v2)
Copy OK
All tracks accurately ripped
No errors occurred
End of status report
---- CUETools DB Plugin V2.1.6
[CTDB TOCID: LQiiHPX2iVx9LHZWjmFvyC.E0xA-] found
Submit result: LQiiHPX2iVx9LHZWjmFvyC.E0xA- has been confirmed
Track | CTDB Status
1 | (65/65) Accurately ripped
2 | (64/65) Accurately ripped
3 | (65/65) Accurately ripped
4 | (65/65) Accurately ripped
5 | (65/65) Accurately ripped
==== Log checksum 49F467FD2D9EAF3B662B09E48C96380CAE36460A8EC629C0A72CAB2AFC906090 ====
CUE
REM DATE 1998
REM DISCID 2E05CF05
REM COMMENT "ExactAudioCopy v1.1"
CATALOG 3984226190200
PERFORMER "Music Instructor feat. Flying Steps"
TITLE "Super Sonic"
FILE "01. Super Sonic (single edit).wav" WAVE
TRACK 01 AUDIO
TITLE "Super Sonic (single edit)"
PERFORMER "Music Instructor feat. Flying Steps"
ISRC DEA619860000
INDEX 01 00:00:00
TRACK 02 AUDIO
TITLE "Super Sonic (extended version)"
PERFORMER "Music Instructor feat. Flying Steps"
ISRC DEA619860001
INDEX 00 03:47:17
FILE "02. Super Sonic (extended version).wav" WAVE
INDEX 01 00:00:00
TRACK 03 AUDIO
TITLE "Super Sonic (Jam Tronic mix)"
PERFORMER "Music Instructor feat. Flying Steps"
ISRC DEA619860002
INDEX 00 05:30:05
FILE "03. Super Sonic (Jam Tronic mix).wav" WAVE
INDEX 01 00:00:00
TRACK 04 AUDIO
TITLE "Super Sonic (Brainbug remix)"
PERFORMER "Music Instructor feat. Flying Steps"
ISRC DEA619860004
INDEX 00 05:36:58
FILE "04. Super Sonic (Brainbug remix).wav" WAVE
INDEX 01 00:00:00
TRACK 05 AUDIO
TITLE "Super Sonic (Dee Jay Soren Electro mix)"
PERFORMER "Music Instructor feat. Flying Steps"
ISRC DEA619860003
INDEX 00 05:56:73
FILE "05. Super Sonic (Dee Jay Soren Electro mix).wav" WAVE
INDEX 01 00:00:00
1998 - Music Instructor feat. Lunatics, Abe, Flying Steps - Get Freaky [3984-25606-2]

Продолжительность: 22:12
01. Music Instructor feat. Lunatics, Abe, Flying Steps - Get Freaky (single edit) [03:49]
02. Music Instructor feat. Lunatics, Abe, Flying Steps - Get Freaky (maxi version) [04:54]
03. Music Instructor feat. Lunatics, Abe, Flying Steps - Get Freaky (Elephant club mix) [05:23]
04. Music Instructor feat. Lunatics, Abe, Flying Steps - Get Freaky (Melino remix) [08:09]
Лог создания рипа
Exact Audio Copy V1.0 beta 3 from 29. August 2011
EAC extraction logfile from 29. November 2013, 12:34
Music Instructor feat. Lunatics, Abe, Flying Steps / Get Freaky
Used drive : TSSTcorpCDDVDW SH-S223C Adapter: 1 ID: 0
Read mode : Secure
Utilize accurate stream : Yes
Defeat audio cache : Yes
Make use of C2 pointers : No
Read offset correction : 697
Overread into Lead-In and Lead-Out : No
Fill up missing offset samples with silence : Yes
Delete leading and trailing silent blocks : No
Null samples used in CRC calculations : Yes
Used interface : Native Win32 interface for Win NT & 2000
Gap handling : Appended to previous track
Used output format : User Defined Encoder
Selected bitrate : 128 kBit/s
Quality : High
Add ID3 tag : No
Command line compressor : C:\flac-1.3.0.exe
Additional command line options : -V -8 -T "Genre=%genre%" -T "Artist=%artist%" -T "Title=%title%" -T "Album=%albumtitle%" -T "Date=%year%" -T "Tracknumber=%tracknr%" -T "Comment=ripped by Andy aka yetiisyou" %source%
TOC of the extracted CD
Track | Start | Length | Start sector | End sector
---------------------------------------------------------
1 | 0:00.00 | 3:48.56 | 0 | 17155
2 | 3:48.56 | 4:53.36 | 17156 | 39166
3 | 8:42.17 | 5:22.05 | 39167 | 63321
4 | 14:04.22 | 8:08.45 | 63322 | 99966
5 | 24:44.67 | 4:06.09 | 111367 | 129825
Track 1
Filename E:\Ripped by Andy aka yetiisyou\Music Instructor feat. Lunatics, Abe, Flying Steps ‎– Get Freaky [3984-25606-2] [1998]\01 Get Freaky (single edit).wav
Pre-gap length 0:00:02.00
Peak level 100.0 %
Extraction speed 1.7 X
Track quality 99.9 %
Test CRC 07E4A864
Copy CRC 07E4A864
Accurately ripped (confidence 24) [B72E7CB0] (AR v2)
Copy OK
Track 2
Filename E:\Ripped by Andy aka yetiisyou\Music Instructor feat. Lunatics, Abe, Flying Steps ‎– Get Freaky [3984-25606-2] [1998]\02 Get Freaky (maxi version).wav
Pre-gap length 0:00:02.00
Peak level 100.0 %
Extraction speed 2.0 X
Track quality 99.9 %
Test CRC 09033EC2
Copy CRC 09033EC2
Accurately ripped (confidence 22) [F44786DF] (AR v2)
Copy OK
Track 3
Filename E:\Ripped by Andy aka yetiisyou\Music Instructor feat. Lunatics, Abe, Flying Steps ‎– Get Freaky [3984-25606-2] [1998]\03 Get Freaky (Elephant club mix).wav
Pre-gap length 0:00:02.00
Peak level 98.3 %
Extraction speed 2.5 X
Track quality 100.0 %
Test CRC D301A965
Copy CRC D301A965
Accurately ripped (confidence 23) [46F341FA] (AR v2)
Copy OK
Track 4
Filename E:\Ripped by Andy aka yetiisyou\Music Instructor feat. Lunatics, Abe, Flying Steps ‎– Get Freaky [3984-25606-2] [1998]\04 Get Freaky (Melino remix).wav
Pre-gap length 0:00:02.00
Peak level 99.9 %
Extraction speed 2.9 X
Track quality 100.0 %
Test CRC C30251EF
Copy CRC C30251EF
Accurately ripped (confidence 24) [FFF606C2] (AR v2)
Copy OK
All tracks accurately ripped
No errors occurred
End of status report
---- CUETools DB Plugin V2.1.3
[CTDB TOCID: PRLLldf5ovR0EqlD7bNgHBhMLpk-] found, Submit result: database access error: Невозможно разрешить удаленное имя: 'db.cuetools.net'
[61333cea] (50/50) Accurately ripped
==== Log checksum F7F47CB175606F6E2E5CDB4D42B004DE81AF30EDC1BCB79FE564483915A377AF ====
Содержание индексной карты (.CUE)
REM DATE 1998
REM DISCID 3706C305
REM COMMENT "ExactAudioCopy v1.0b3"
PERFORMER "Music Instructor feat. Lunatics, Abe, Flying Steps"
TITLE "Get Freaky"
FILE "01 Get Freaky (single edit).wav" WAVE
TRACK 01 AUDIO
TITLE "Get Freaky (single edit)"
PERFORMER "Music Instructor feat. Lunatics, Abe, Flying Steps"
INDEX 01 00:00:00
TRACK 02 AUDIO
TITLE "Get Freaky (maxi version)"
PERFORMER "Music Instructor feat. Lunatics, Abe, Flying Steps"
INDEX 00 03:46:56
FILE "02 Get Freaky (maxi version).wav" WAVE
INDEX 01 00:00:00
TRACK 03 AUDIO
TITLE "Get Freaky (Elephant club mix)"
PERFORMER "Music Instructor feat. Lunatics, Abe, Flying Steps"
INDEX 00 04:51:36
FILE "03 Get Freaky (Elephant club mix).wav" WAVE
INDEX 01 00:00:00
TRACK 04 AUDIO
TITLE "Get Freaky (Melino remix)"
PERFORMER "Music Instructor feat. Lunatics, Abe, Flying Steps"
INDEX 00 05:20:05
FILE "04 Get Freaky (Melino remix).wav" WAVE
INDEX 01 00:00:00
TRACK 05 MODEx/2xxx
TITLE "Unknown Title"
PERFORMER "Music Instructor feat. Lunatics, Abe, Flying Steps"
INDEX 00 08:08:45
Video
Формат: MPEG-PS
Видео: MPEG-1 Video, 352 x 288, 1.222, 1 101 Kbps, 25.000 fps, 0.434 b/px
Аудио: MPEG-1 Audio layer 2, 128 Kbps, CBR, 44.1 KHz, 2 ch.
Продолжительность: 3mn 46s
Скриншоты
2000 - In Da Arena (Situation), We Gonna Rock It [DST 70707-8]

Продолжительность: 28:49
01. Flying Steps - In Da Arena (Situation) (Radio Edit) [03:21]
02. Flying Steps - In Da Arena (Situation) (Video Show-Cut) [03:22]
03. Flying Steps - In Da Arena (Situation) (Arena Club Mix) [04:55]
04. Flying Steps - In Da Arena (Situation) (Bassheadz Remix) [04:45]
05. Flying Steps - We Gonna Rock It (Drop-Out Short Cut) [03:57]
06. Flying Steps - We Gonna Rock It (Millenium Radio Mix) [04:08]
07. Flying Steps - We Gonna Rock It (Jetset Remix) [04:18]
Лог создания рипа
Exact Audio Copy V1.0 beta 3 from 29. August 2011
EAC extraction logfile from 29. November 2013, 15:42
Flying Steps / In Da Arena (Situation) / We Gonna Rock It
Used drive : TSSTcorpCDDVDW SH-S223C Adapter: 1 ID: 0
Read mode : Secure
Utilize accurate stream : Yes
Defeat audio cache : Yes
Make use of C2 pointers : No
Read offset correction : 697
Overread into Lead-In and Lead-Out : No
Fill up missing offset samples with silence : Yes
Delete leading and trailing silent blocks : No
Null samples used in CRC calculations : Yes
Used interface : Native Win32 interface for Win NT & 2000
Gap handling : Appended to previous track
Used output format : User Defined Encoder
Selected bitrate : 128 kBit/s
Quality : High
Add ID3 tag : No
Command line compressor : C:\flac-1.3.0.exe
Additional command line options : -V -8 -T "Genre=%genre%" -T "Artist=%artist%" -T "Title=%title%" -T "Album=%albumtitle%" -T "Date=%year%" -T "Tracknumber=%tracknr%" -T "Comment=ripped by Andy aka yetiisyou" %source%
TOC of the extracted CD
Track | Start | Length | Start sector | End sector
---------------------------------------------------------
1 | 0:00.00 | 3:21.50 | 0 | 15124
2 | 3:21.50 | 3:22.09 | 15125 | 30283
3 | 6:43.59 | 4:55.74 | 30284 | 52482
4 | 11:39.58 | 4:45.70 | 52483 | 73927
5 | 16:25.53 | 3:57.08 | 73928 | 91710
6 | 20:22.61 | 4:08.62 | 91711 | 110372
7 | 24:31.48 | 4:18.26 | 110373 | 129748
Track 1
Filename E:\Ripped by Andy aka yetiisyou\Flying Steps - In Da Arena (Situation), We Gonna Rock It [DST 70707-8] [2000]\01 In Da Arena (Situation) (Radio Edit).wav
Pre-gap length 0:00:02.00
Peak level 99.4 %
Extraction speed 1.9 X
Track quality 100.0 %
Test CRC 346A6F41
Copy CRC 346A6F41
Accurately ripped (confidence 3) [3F286045] (AR v2)
Copy OK
Track 2
Filename E:\Ripped by Andy aka yetiisyou\Flying Steps - In Da Arena (Situation), We Gonna Rock It [DST 70707-8] [2000]\02 In Da Arena (Situation) (Video Show-Cut).wav
Pre-gap length 0:00:02.00
Peak level 99.4 %
Extraction speed 2.0 X
Track quality 100.0 %
Test CRC AF7A04FB
Copy CRC AF7A04FB
Accurately ripped (confidence 3) [1F6BDF00] (AR v2)
Copy OK
Track 3
Filename E:\Ripped by Andy aka yetiisyou\Flying Steps - In Da Arena (Situation), We Gonna Rock It [DST 70707-8] [2000]\03 In Da Arena (Situation) (Arena Club Mix).wav
Pre-gap length 0:00:02.00
Peak level 99.4 %
Extraction speed 2.4 X
Track quality 100.0 %
Test CRC E6846B2E
Copy CRC E6846B2E
Accurately ripped (confidence 3) [D432E059] (AR v1)
Copy OK
Track 4
Filename E:\Ripped by Andy aka yetiisyou\Flying Steps - In Da Arena (Situation), We Gonna Rock It [DST 70707-8] [2000]\04 In Da Arena (Situation) (Bassheadz Remix).wav
Pre-gap length 0:00:02.00
Peak level 98.4 %
Extraction speed 2.6 X
Track quality 100.0 %
Test CRC E240FB7A
Copy CRC E240FB7A
Accurately ripped (confidence 3) [134B951D] (AR v1)
Copy OK
Track 5
Filename E:\Ripped by Andy aka yetiisyou\Flying Steps - In Da Arena (Situation), We Gonna Rock It [DST 70707-8] [2000]\05 We Gonna Rock It (Drop-Out Short Cut).wav
Pre-gap length 0:00:02.00
Peak level 99.4 %
Extraction speed 2.7 X
Track quality 100.0 %
Test CRC A55A0B0C
Copy CRC A55A0B0C
Accurately ripped (confidence 2) [8516C721] (AR v2)
Copy OK
Track 6
Filename E:\Ripped by Andy aka yetiisyou\Flying Steps - In Da Arena (Situation), We Gonna Rock It [DST 70707-8] [2000]\06 We Gonna Rock It (Millenium Radio Mix).wav
Pre-gap length 0:00:02.00
Peak level 99.4 %
Extraction speed 2.9 X
Track quality 100.0 %
Test CRC B1D078DF
Copy CRC B1D078DF
Accurately ripped (confidence 2) [D7762C35] (AR v2)
Copy OK
Track 7
Filename E:\Ripped by Andy aka yetiisyou\Flying Steps - In Da Arena (Situation), We Gonna Rock It [DST 70707-8] [2000]\07 We Gonna Rock It (Jetset Remix).wav
Pre-gap length 0:00:02.00
Peak level 99.4 %
Extraction speed 2.4 X
Track quality 99.9 %
Test CRC 651D78C8
Copy CRC 651D78C8
Accurately ripped (confidence 3) [F92D054F] (AR v1)
Copy OK
All tracks accurately ripped
No errors occurred
End of status report
---- CUETools DB Plugin V2.1.3
[CTDB TOCID: RU9b64PkQDgb.Eh2saasxyYFCDY-] found, Submit result: RU9b64PkQDgb.Eh2saasxyYFCDY- has been confirmed
[050d4a3f] (09/10) Accurately ripped
[e2b0814c] (01/10) No match
==== Log checksum D497AD4E6F50D2281A30B57EB6BDB28954D72BFA5223A19C23F227A575878007 ====
Содержание индексной карты (.CUE)
REM DATE 2000
REM DISCID 4806C107
REM COMMENT "ExactAudioCopy v1.0b3"
PERFORMER "Flying Steps"
TITLE "In Da Arena (Situation) / We Gonna Rock It"
FILE "01 In Da Arena (Situation) (Radio Edit).wav" WAVE
TRACK 01 AUDIO
TITLE "In Da Arena (Situation) (Radio Edit)"
PERFORMER "Flying Steps"
INDEX 01 00:00:00
TRACK 02 AUDIO
TITLE "In Da Arena (Situation) (Video Show-Cut)"
PERFORMER "Flying Steps"
INDEX 00 03:19:50
FILE "02 In Da Arena (Situation) (Video Show-Cut).wav" WAVE
INDEX 01 00:00:00
TRACK 03 AUDIO
TITLE "In Da Arena (Situation) (Arena Club Mix)"
PERFORMER "Flying Steps"
INDEX 00 03:20:09
FILE "03 In Da Arena (Situation) (Arena Club Mix).wav" WAVE
INDEX 01 00:00:00
TRACK 04 AUDIO
TITLE "In Da Arena (Situation) (Bassheadz Remix)"
PERFORMER "Flying Steps"
INDEX 00 04:53:74
FILE "04 In Da Arena (Situation) (Bassheadz Remix).wav" WAVE
INDEX 01 00:00:00
TRACK 05 AUDIO
TITLE "We Gonna Rock It (Drop-Out Short Cut)"
PERFORMER "Flying Steps"
INDEX 00 04:43:70
FILE "05 We Gonna Rock It (Drop-Out Short Cut).wav" WAVE
INDEX 01 00:00:00
TRACK 06 AUDIO
TITLE "We Gonna Rock It (Millenium Radio Mix)"
PERFORMER "Flying Steps"
INDEX 00 03:55:08
FILE "06 We Gonna Rock It (Millenium Radio Mix).wav" WAVE
INDEX 01 00:00:00
TRACK 07 AUDIO
TITLE "We Gonna Rock It (Jetset Remix)"
PERFORMER "Flying Steps"
INDEX 00 04:06:62
FILE "07 We Gonna Rock It (Jetset Remix).wav" WAVE
INDEX 01 00:00:00
2000 - We Are Electric [DST 70800-8]

Продолжительность: 18:02
01. Flying Steps - Radio Mix [03:31]
02. Flying Steps - Short Remix [03:32]
03. Flying Steps - Bassheadz Remix [04:07]
04. Flying Steps - Sonix Remix [03:09]
05. Flying Steps - Sonixtended [03:41]
Лог создания рипа
Exact Audio Copy V1.0 beta 3 from 29. August 2011
EAC extraction logfile from 27. November 2013, 8:34
Flying Steps / We are Electric
Used drive : MATSHITADVD-RAM UJ8B0 Adapter: 2 ID: 0
Read mode : Secure
Utilize accurate stream : Yes
Defeat audio cache : Yes
Make use of C2 pointers : No
Read offset correction : 102
Overread into Lead-In and Lead-Out : No
Fill up missing offset samples with silence : Yes
Delete leading and trailing silent blocks : No
Null samples used in CRC calculations : Yes
Used interface : Native Win32 interface for Win NT & 2000
Gap handling : Appended to previous track
Used output format : User Defined Encoder
Selected bitrate : 128 kBit/s
Quality : Low
Add ID3 tag : No
Command line compressor : C:\flac-1.3.0.exe
Additional command line options : -V -8 -T "Genre=%genre%" -T "Artist=%artist%" -T "Title=%title%" -T "Album=%albumtitle%" -T "Date=%year%" -T "Tracknumber=%tracknr%" -T "Comment=ripped by Andy aka yetiisyou" %source%
TOC of the extracted CD
Track | Start | Length | Start sector | End sector
---------------------------------------------------------
1 | 0:00.00 | 3:31.31 | 0 | 15855
2 | 3:31.31 | 3:32.28 | 15856 | 31783
3 | 7:03.59 | 4:07.21 | 31784 | 50329
4 | 11:11.05 | 3:09.30 | 50330 | 64534
5 | 14:20.35 | 3:41.74 | 64535 | 81183
6 | 20:34.34 | 1:10.15 | 92584 | 97848
Track 1
Filename D:\Ripped by Andy aka yetiisyou\Flying Steps - We Are Electric [JetSet - DST 70800-8][2000]\01. Radio Mix.wav
Pre-gap length 0:00:02.00
Peak level 98.1 %
Extraction speed 1.1 X
Track quality 100.0 %
Test CRC 65D5587C
Copy CRC 65D5587C
Accurately ripped (confidence 1) [AB522BF2] (AR v2)
Copy OK
Track 2
Filename D:\Ripped by Andy aka yetiisyou\Flying Steps - We Are Electric [JetSet - DST 70800-8][2000]\02. Short Remix.wav
Peak level 98.1 %
Extraction speed 1.2 X
Track quality 100.0 %
Test CRC 18DDF1C6
Copy CRC 18DDF1C6
Accurately ripped (confidence 1) [63C7F2EA] (AR v2)
Copy OK
Track 3
Filename D:\Ripped by Andy aka yetiisyou\Flying Steps - We Are Electric [JetSet - DST 70800-8][2000]\03. Bassheadz Remix.wav
Peak level 98.1 %
Extraction speed 1.4 X
Track quality 100.0 %
Test CRC EB4E1DA0
Copy CRC EB4E1DA0
Accurately ripped (confidence 1) [1EA79CEE] (AR v2)
Copy OK
Track 4
Filename D:\Ripped by Andy aka yetiisyou\Flying Steps - We Are Electric [JetSet - DST 70800-8][2000]\04. Sonix Remix.wav
Peak level 98.1 %
Extraction speed 1.4 X
Track quality 100.0 %
Test CRC B3EC49C6
Copy CRC B3EC49C6
Accurately ripped (confidence 1) [ADE77456] (AR v2)
Copy OK
Track 5
Filename D:\Ripped by Andy aka yetiisyou\Flying Steps - We Are Electric [JetSet - DST 70800-8][2000]\05. Sonixtended.wav
Peak level 98.1 %
Extraction speed 1.5 X
Track quality 100.0 %
Test CRC 2A7A9380
Copy CRC 2A7A9380
Accurately ripped (confidence 1) [C4D262B6] (AR v2)
Copy OK
All tracks accurately ripped
No errors occurred
End of status report
---- CUETools DB Plugin V2.1.3
[CTDB TOCID: v6MA1uRisjf.QTIMj17vQhXNxgw-] found, Submit result: v6MA1uRisjf.QTIMj17vQhXNxgw- has been confirmed
[41eaab1a] (1/1) Accurately ripped
==== Log checksum 7E0F562339E493110FD8AFFDEDC9CA45ABA668AC1209840A2CF6E87BF476AB15 ====
Содержание индексной карты (.CUE)
REM GENRE Freestyle
REM DATE 2000
REM DISCID 3F051806
REM COMMENT "ExactAudioCopy v1.0b3"
PERFORMER "Flying Steps"
TITLE "We are Electric"
FILE "01. Radio Mix.wav" WAVE
TRACK 01 AUDIO
TITLE "Radio Mix"
PERFORMER "Flying Steps"
INDEX 01 00:00:00
FILE "02. Short Remix.wav" WAVE
TRACK 02 AUDIO
TITLE "Short Remix"
PERFORMER "Flying Steps"
INDEX 01 00:00:00
FILE "03. Bassheadz Remix.wav" WAVE
TRACK 03 AUDIO
TITLE "Bassheadz Remix"
PERFORMER "Flying Steps"
INDEX 01 00:00:00
FILE "04. Sonix Remix.wav" WAVE
TRACK 04 AUDIO
TITLE "Sonix Remix"
PERFORMER "Flying Steps"
INDEX 01 00:00:00
FILE "05. Sonixtended.wav" WAVE
TRACK 05 AUDIO
TITLE "Sonixtended"
PERFORMER "Flying Steps"
INDEX 01 00:00:00
2001 - Breakin' It Down [DST 70858-8]

Продолжительность: 18:37
01. Flying Steps - Breakin' It Down (Radio Edit) [03:46]
02. Flying Steps - Breakin' It Down (Extended Mix) [04:58]
03. Flying Steps - Breakin' It Down (Bassheadz Rmx) [05:13]
04. Flying Steps - We Are Electric (Ultimate Fan Mix) [04:42]
log and sheet
Log
Exact Audio Copy V1.1 from 23. June 2015
EAC extraction logfile from 16. November 2015, 19:42
Flying Steps / Breakin' It Down
Used drive : ASUS SDRW-08D2S-U Adapter: 1 ID: 0
Read mode : Secure
Utilize accurate stream : Yes
Defeat audio cache : Yes
Make use of C2 pointers : No
Read offset correction : 6
Overread into Lead-In and Lead-Out : No
Fill up missing offset samples with silence : Yes
Delete leading and trailing silent blocks : No
Null samples used in CRC calculations : Yes
Used interface : Native Win32 interface for Win NT & 2000
Gap handling : Appended to previous track
Used output format : User Defined Encoder
Selected bitrate : 32 kBit/s
Quality : High
Add ID3 tag : No
Command line compressor : C:\Exact Audio Copy [installed]\Flac\flac.exe
Additional command line options : -8 -V -T "ARTIST=%artist%" -T "TITLE=%title%" -T "ALBUM=%albumtitle%" -T "DATE=%year%" -T "TRACKNUMBER=%tracknr%" -T "GENRE=%genre%" -T "COMMENT=ripped by Andy aka yetiisyou" %source%
TOC of the extracted CD
Track | Start | Length | Start sector | End sector
---------------------------------------------------------
1 | 0:00.00 | 3:45.15 | 0 | 16889
2 | 3:45.15 | 4:57.05 | 16890 | 39169
3 | 8:42.20 | 5:12.50 | 39170 | 62619
4 | 13:54.70 | 4:41.22 | 62620 | 83716
5 | 21:08.17 | 1:51.33 | 95117 | 103474
Track 1
Filename E:\!Ripped by Andy aka yetiisyou\Flying Steps - Breakin' It Down [DST 70858-8] [2001]\01. Breakin' It Down (Radio Edit).wav
Pre-gap length 0:00:02.00
Peak level 99.3 %
Extraction speed 1.1 X
Track quality 100.0 %
Test CRC D85EAAF9
Copy CRC D85EAAF9
Accurately ripped (confidence 7) [0EA1FF6E] (AR v2)
Copy OK
Track 2
Filename E:\!Ripped by Andy aka yetiisyou\Flying Steps - Breakin' It Down [DST 70858-8] [2001]\02. Breakin' It Down (Extended Mix).wav
Pre-gap length 0:00:01.74
Peak level 98.0 %
Extraction speed 1.3 X
Track quality 100.0 %
Test CRC F376F158
Copy CRC F376F158
Accurately ripped (confidence 7) [9F7A160B] (AR v2)
Copy OK
Track 3
Filename E:\!Ripped by Andy aka yetiisyou\Flying Steps - Breakin' It Down [DST 70858-8] [2001]\03. Breakin' It Down (Bassheadz Rmx).wav
Pre-gap length 0:00:01.74
Peak level 98.0 %
Extraction speed 1.4 X
Track quality 100.0 %
Test CRC 59C84203
Copy CRC 59C84203
Accurately ripped (confidence 7) [643D9E60] (AR v2)
Copy OK
Track 4
Filename E:\!Ripped by Andy aka yetiisyou\Flying Steps - Breakin' It Down [DST 70858-8] [2001]\04. We Are Electric (Ultimate Fan Mix).wav
Pre-gap length 0:00:01.74
Peak level 98.0 %
Extraction speed 1.6 X
Track quality 100.0 %
Test CRC 35C2C187
Copy CRC 35C2C187
Accurately ripped (confidence 6) [D1C0BEA3] (AR v2)
Copy OK
All tracks accurately ripped
No errors occurred
End of status report
---- CUETools DB Plugin V2.1.6
[CTDB TOCID: mpCTl88zcKLYjIyEJS_eaQPdh70-] found
Submit result: mpCTl88zcKLYjIyEJS_eaQPdh70- has been confirmed
Track | CTDB Status
1 | (9/9) Accurately ripped
2 | (9/9) Accurately ripped
3 | (9/9) Accurately ripped
4 | (9/9) Accurately ripped
==== Log checksum 2FB36E586427A4C0F5A6C7A3FB791F0158A08D7C0F3C873EE45AE50E62E8C5B6 ====
CUE
REM DATE 2001
REM DISCID 33056305
REM COMMENT "ExactAudioCopy v1.1"
PERFORMER "Flying Steps"
TITLE "Breakin' It Down"
FILE "01. Breakin' It Down (Radio Edit).wav" WAVE
TRACK 01 AUDIO
TITLE "Breakin' It Down (Radio Edit)"
PERFORMER "Flying Steps"
ISRC DEB550108581
INDEX 01 00:00:00
TRACK 02 AUDIO
TITLE "Breakin' It Down (Extended Mix)"
PERFORMER "Flying Steps"
ISRC DEB550108582
INDEX 00 03:43:16
FILE "02. Breakin' It Down (Extended Mix).wav" WAVE
INDEX 01 00:00:00
TRACK 03 AUDIO
TITLE "Breakin' It Down (Bassheadz Rmx)"
PERFORMER "Flying Steps"
ISRC DEB550108583
INDEX 00 04:55:06
FILE "03. Breakin' It Down (Bassheadz Rmx).wav" WAVE
INDEX 01 00:00:00
TRACK 04 AUDIO
TITLE "We Are Electric (Ultimate Fan Mix)"
PERFORMER "Flying Steps"
ISRC DEB550008004
INDEX 00 05:10:51
FILE "04. We Are Electric (Ultimate Fan Mix).wav" WAVE
INDEX 01 00:00:00
2001 - In Da Arena (Situation) [9230432]

Продолжительность: 19:45
01. Flying Steps - In Da Arena (Situation) (Original Mix) [03:23]
02. Flying Steps - In Da Arena (Situation) (Krafty Kut's Funked Up Zoom Mix) [05:44]
03. Flying Steps - In Da Arena (Situation) (Phlash! Remix) [06:09]
04. Flying Steps - In Da Arena (Situation) (Bassheadz Remix) [04:30]
log and sheet
Log
Exact Audio Copy V1.1 from 23. June 2015
EAC extraction logfile from 16. November 2015, 20:02
Flying Steps / In Da Arena (Situation)
Used drive : ASUS SDRW-08D2S-U Adapter: 1 ID: 0
Read mode : Secure
Utilize accurate stream : Yes
Defeat audio cache : Yes
Make use of C2 pointers : No
Read offset correction : 6
Overread into Lead-In and Lead-Out : No
Fill up missing offset samples with silence : Yes
Delete leading and trailing silent blocks : No
Null samples used in CRC calculations : Yes
Used interface : Native Win32 interface for Win NT & 2000
Gap handling : Appended to previous track
Used output format : User Defined Encoder
Selected bitrate : 32 kBit/s
Quality : High
Add ID3 tag : No
Command line compressor : C:\Exact Audio Copy [installed]\Flac\flac.exe
Additional command line options : -8 -V -T "ARTIST=%artist%" -T "TITLE=%title%" -T "ALBUM=%albumtitle%" -T "DATE=%year%" -T "TRACKNUMBER=%tracknr%" -T "GENRE=%genre%" -T "COMMENT=ripped by Andy aka yetiisyou" %source%
TOC of the extracted CD
Track | Start | Length | Start sector | End sector
---------------------------------------------------------
1 | 0:00.00 | 3:22.22 | 0 | 15171
2 | 3:22.22 | 5:43.65 | 15172 | 40961
3 | 9:06.12 | 6:08.53 | 40962 | 68614
4 | 15:14.65 | 4:29.27 | 68615 | 88816
Track 1
Filename E:\!Ripped by Andy aka yetiisyou\Flying Steps - In Da Arena (Situation) [9230432] [2001]\01. In Da Arena (Situation) (Original Mix).wav
Pre-gap length 0:00:02.00
Peak level 87.3 %
Extraction speed 2.6 X
Track quality 100.0 %
Test CRC E09E9B4E
Copy CRC E09E9B4E
Accurately ripped (confidence 1) [1FD142AB] (AR v1)
Copy OK
Track 2
Filename E:\!Ripped by Andy aka yetiisyou\Flying Steps - In Da Arena (Situation) [9230432] [2001]\02. In Da Arena (Situation) (Krafty Kut's Funked Up Zoom Mix).wav
Pre-gap length 0:00:01.45
Peak level 98.8 %
Extraction speed 3.1 X
Track quality 100.0 %
Test CRC 887F22DC
Copy CRC 887F22DC
Accurately ripped (confidence 1) [86A6FEB0] (AR v1)
Copy OK
Track 3
Filename E:\!Ripped by Andy aka yetiisyou\Flying Steps - In Da Arena (Situation) [9230432] [2001]\03. In Da Arena (Situation) (Phlash! Remix).wav
Pre-gap length 0:00:01.45
Peak level 98.8 %
Extraction speed 3.6 X
Track quality 100.0 %
Test CRC 6D18903D
Copy CRC 6D18903D
Accurately ripped (confidence 1) [7130C70D] (AR v1)
Copy OK
Track 4
Filename E:\!Ripped by Andy aka yetiisyou\Flying Steps - In Da Arena (Situation) [9230432] [2001]\04. In Da Arena (Situation) (Bassheadz Remix).wav
Pre-gap length 0:00:01.48
Peak level 97.1 %
Extraction speed 3.8 X
Track quality 100.0 %
Test CRC 92A267B5
Copy CRC 92A267B5
Accurately ripped (confidence 1) [9CCFEDD5] (AR v1)
Copy OK
All tracks accurately ripped
No errors occurred
End of status report
---- CUETools DB Plugin V2.1.6
[CTDB TOCID: g956l2nLsihZ8_6nczBjpGK6XIs-] disk not present in database
Submit result: g956l2nLsihZ8_6nczBjpGK6XIs- has been uploaded
==== Log checksum 6B94DEF567B06F3A286D08C3CD6CA52A62697DD990EEB365DCE529DA2C21EB03 ====
CUE
REM DATE 2001
REM DISCID 2904A004
REM COMMENT "ExactAudioCopy v1.1"
PERFORMER "Flying Steps"
TITLE "In Da Arena (Situation)"
FILE "01. In Da Arena (Situation) (Original Mix).wav" WAVE
TRACK 01 AUDIO
TITLE "In Da Arena (Situation) (Original Mix)"
PERFORMER "Flying Steps"
ISRC GBAHK0100001
INDEX 01 00:00:00
TRACK 02 AUDIO
TITLE "In Da Arena (Situation) (Krafty Kut's Funked Up Zoom Mix)"
PERFORMER "Flying Steps"
ISRC GBAHK0100002
INDEX 00 03:20:52
FILE "02. In Da Arena (Situation) (Krafty Kut's Funked Up Zoom Mix).wav" WAVE
INDEX 01 00:00:00
TRACK 03 AUDIO
TITLE "In Da Arena (Situation) (Phlash! Remix)"
PERFORMER "Flying Steps"
ISRC GBAHK0100003
INDEX 00 05:42:20
FILE "03. In Da Arena (Situation) (Phlash! Remix).wav" WAVE
INDEX 01 00:00:00
TRACK 04 AUDIO
TITLE "In Da Arena (Situation) (Bassheadz Remix)"
PERFORMER "Flying Steps"
ISRC GBAHK0100004
INDEX 00 06:07:05
FILE "04. In Da Arena (Situation) (Bassheadz Remix).wav" WAVE
INDEX 01 00:00:00
Download
Сайт не распространяет и не хранит электронные версии произведений, а лишь предоставляет доступ к создаваемому пользователями каталогу ссылок на торрент-файлы, которые содержат только списки хеш-сумм
Как скачивать? (для скачивания .torrent файлов необходима регистрация)
[Профиль]  [ЛС] 

anton4ik_1988

Стаж: 9 лет 8 месяцев

Сообщений: 117

anton4ik_1988 · 06-Мар-16 22:37 (спустя 6 лет 2 месяца)

скрытый текст
Ностальгия
[Профиль]  [ЛС] 

Vjhatj

Стаж: 8 лет 11 месяцев

Сообщений: 380

Vjhatj · 20-Апр-16 19:45 (спустя 1 месяц 13 дней, ред. 20-Апр-16 19:45)

Кляяяяяясссс! Кляссссика! Благодарю тебя, Эндик! Отличный набор собрал! Включил Flying Steps и в тот же час пришел к выводы, что сейчас 2000-5 года, и никакой не 2016...Приятно Хоть эта небыль и на некоторое время.
Ценим Ваши раздачи и всех раздающих, словом, трекер в целом. И пусть наши благодарности бодрят Вас стараться для нас.
Слушая музыку перед зеркалом фристайлю наподобие Хип-Хоп движений и выходит довольно целенаправленно, словно за ранее подготовил! Музыка для брейка, резких движений под ритм - многие занятия становятся намного интересным под подобный брейкбит, електро, брейкс, фристайл...В общем, энергетик!
[Профиль]  [ЛС] 

st1mpy

Стаж: 11 лет 2 месяца

Сообщений: 28


st1mpy · 19-Мар-17 20:16 (спустя 10 месяцев)

Ееееее, музон класс вааа!!! Супер! реально ностальгия, сейчас вся музыка не та и не то)
[Профиль]  [ЛС] 

vovan78-07

Стаж: 7 лет 10 месяцев

Сообщений: 7


vovan78-07 · 10-Май-17 22:16 (спустя 1 месяц 22 дня)

Ох красота... здравствуй моя молодость
[Профиль]  [ЛС] 

Scher-Khan89

Стаж: 8 лет 9 месяцев

Сообщений: 3

Scher-Khan89 · 27-Май-19 23:06 (спустя 2 года)

поддайте газку ребят
[Профиль]  [ЛС] 

dave_555

Стаж: 9 лет 11 месяцев

Сообщений: 5


dave_555 · 05-Июл-19 02:00 (спустя 1 месяц 8 дней)

Вот это вкусняшка... Благодарю!
[Профиль]  [ЛС] 
 
Ответить
Loading...
Error