Свет Византии (Е. Козенкова) [2013, торжество Православия, DVDRip]

Страницы:  1
Ответить
Автор
Сообщение

royalstag

Top Seed 06* 1280r

Стаж: 9 лет 3 месяца

Сообщений: 1783

royalstag · 19-Май-19 22:03 (3 месяца 5 дней назад)

Свет Византии
Дата/Год выпуска: 2013
Страна: Россия
Жанр: торжество Православия
Продолжительность: 00:44:59
Перевод: Не требуется
Русские субтитры: нет
Оригинальная аудиодорожка: русский
Режиссер: Е. Козенкова
Описание: "Эллада - это страна солнца! Желаем, чтобы Христос освятил нашу страну и всех, кто в нее приезжает! Духовная жизнь не меняет ежедневной жизни, она меняет мысли людей, их сознание. И это есть великое благословение!" - сказал при встрече с нами игумен скита Иоанна Предтечи отец Порфириос. Во время путешествия по святым местам Греции духоносных встреч было немало...
Смотрите:
- святой Спиридон Тримифунтский - заступник острова Корфу;
- Метеоры или монастыри, "парящие" в воздухе;
- древние фрески Феофана Критского;
- неизвестный русским людям - святой Иоанн Русский;
- древнехристианский блаженный Потапий;
- в "гостях" у святых: Андрея Первозванного, Димитрия Солунского, Григория Паламы.
качество: DVDRip
формат: AVI
Видео: MPEG4, XviD, 720x416 (16:9), 25.000 fps, 1 698 Kbps (0.227 bit/pixel)
Аудио: MP3, 48.0 KHz, 2 ch, 160 Kbps, CBR
MediaInfo
General
Complete name : C:\Users\User\Downloads\Свет Византии.avi
Format : AVI
Format/Info : Audio Video Interleave
File size : 602 MiB
Duration : 44mn 58s
Overall bit rate : 1 871 Kbps
Video
ID : 0
Format : MPEG-4 Visual
Format profile : Advanced [email protected]
Format settings, BVOP : 1
Format settings, QPel : No
Format settings, GMC : No warppoints
Format settings, Matrix : Default (H.263)
Codec ID : XVID
Codec ID/Hint : XviD
Duration : 44mn 58s
Bit rate : 1 698 Kbps
Width : 720 pixels
Height : 416 pixels
Display aspect ratio : 1.731
Frame rate : 25.000 fps
Color space : YUV
Chroma subsampling : 4:2:0
Bit depth : 8 bits
Scan type : Progressive
Compression mode : Lossy
Bits/(Pixel*Frame) : 0.227
Stream size : 546 MiB (91%)
Writing library : XviD 64
Audio
ID : 1
Format : MPEG Audio
Format version : Version 1
Format profile : Layer 3
Mode : Joint stereo
Codec ID : 55
Codec ID/Hint : MP3
Duration : 44mn 58s
Bit rate mode : Constant
Bit rate : 160 Kbps
Channel(s) : 2 channels
Sampling rate : 48.0 KHz
Compression mode : Lossy
Delay relative to video : 40ms
Stream size : 51.5 MiB (9%)
Alignment : Aligned on interleaves
Interleave, duration : 24 ms (0.60 video frame)
Interleave, preload duration : 504 ms
Writing library : LAMEЄЄ
Скриншоты
Download
Сайт не распространяет и не хранит электронные версии произведений, а лишь предоставляет доступ к создаваемому пользователями каталогу ссылок на торрент-файлы, которые содержат только списки хеш-сумм
Как скачивать? (для скачивания .torrent файлов необходима регистрация)
[Профиль]  [ЛС] 

royalstag

Top Seed 06* 1280r

Стаж: 9 лет 3 месяца

Сообщений: 1783

royalstag · 19-Май-19 22:10 (спустя 7 мин.)

для модераторов
в этой раздаче следующие характеристики
MI
General
Complete name : C:\Users\User\Downloads\Свет Византии.avi
Format : AVI
Format/Info : Audio Video Interleave
File size : 602 MiB
Duration : 44mn 58s
Overall bit rate : 1 872 Kbps
Movie name : Свет Византии
Writing application : MEncoder SVN-r35468-4.6.1
Writing library : MPlayer
Comment : DVDRip by andrejpushkaryov
Video
ID : 0
Format : MPEG-4 Visual
Format profile : Advanced Simp[email protected]
Format settings, BVOP : 1
Format settings, QPel : No
Format settings, GMC : No warppoints
Format settings, Matrix : Default (H.263)
Muxing mode : Packed bitstream
Codec ID : XVID
Codec ID/Hint : XviD
Duration : 44mn 58s
Bit rate : 1 699 Kbps
Width : 720 pixels
Height : 416 pixels
Display aspect ratio : 1.731
Frame rate : 25.000 fps
Color space : YUV
Chroma subsampling : 4:2:0
Bit depth : 8 bits
Scan type : Progressive
Compression mode : Lossy
Bits/(Pixel*Frame) : 0.227
Stream size : 547 MiB (91%)
Writing library : XviD 64
Audio
ID : 1
Format : MPEG Audio
Format version : Version 1
Format profile : Layer 3
Mode : Joint stereo
Codec ID : 55
Codec ID/Hint : MP3
Duration : 44mn 58s
Bit rate mode : Constant
Bit rate : 160 Kbps
Channel(s) : 2 channels
Sampling rate : 48.0 KHz
Compression mode : Lossy
Delay relative to video : 40ms
Stream size : 51.5 MiB (9%)
Alignment : Aligned on interleaves
Interleave, duration : 24 ms (0.60 video frame)
Interleave, preload duration : 504 ms
Writing library : LAMEЄЄ
[Профиль]  [ЛС] 
 
Ответить
Loading...
Error